História | The Walking Dead HDTV 720p AC3 5.1 | Danganronpa Kibo no Gakuen to Zetsubo no Kokosei The Animation
[Login] or [Signup]
Login
Username:
Password:
[Signup]
[Recover Account]


Poll


You must be logged in to view polls



Torrent Details For "Jai Lava Kusa 2018 Hindi UntoucheD DTHRip x264 AVC AAC 800MB [HDFilmBoss]"

Jai Lava Kusa 2018 Hindi UntoucheD DTHRip x264 AVC AAC 800MB [HDFilmBoss]

Download this torrent | Magnet Download
Health:
Seeds: 3
Leechers: 31
Completed:
Last Checked: 13-05-2018 16:03:08
External Torrent
Update Stats
Download Magnet


Poster


iMDB
Imdb Picture Title: Jai Lava Kusa
Year: 2017
Votes: 842
Rating: 9.1/10
Language: Telugu
Country: India
All Genres: Action, Drama
Plot Outline: Jai, Lava and Kusa are identical triplets whose personalities are very different from each other.
Director: Bobby Kolli
Writing By: Bobby Kolli,Kona Venkat,
Produced By: Kalyan Ram,
Music: Devi Sri Prasad
Cast:
Junior N.T.R. as Jai / Lava / kusa
Rashi Khanna as Priya
Niveda Thomas as Simran
Brahmaji as Rambabu, Bank Assistant Manager
Duniya Vijay as
Posani Krishnamurali as
Ravinder Kolishetty as Officer
Hamsa Nandini as V A Rajini


Watch-Free-HD     Download

Details
Name:Jai Lava Kusa 2018 Hindi UntoucheD DTHRip x264 AVC AAC 800MB [HDFilmBoss]
Description:
Visit Site> http://hdfilmboss.com/

General
Complete name:[HDFilmBoss.Com]Jai Lava Kusa (2018) Hindi UntoucheD DTHRip x264 AVC AAC 700MB-HDFilmBoss.Com.mp4
Format                                   : MPEG-4
Format profile                           : Base Media
Codec ID                                 : isom (isom/iso2/avc1/mp41)
File size                                : 813 MiB
Duration                                 : 2 h 14 min
Overall bit rate                         : 844 kb/s
Writing application                      : Lavf57.83.100

Video
ID                                       : 1
Format                                   : AVC
Format/Info                              : Advanced Video Codec
Format profile                           : [email protected]
Format settings                          : CABAC / 4 Ref Frames
Format settings, CABAC                   : Yes
Format settings, RefFrames               : 4 frames
Codec ID                                 : avc1
Codec ID/Info                            : Advanced Video Coding
Duration                                 : 2 h 14 min
Bit rate                                 : 709 kb/s
Width                                    : 768 pixels
Height                                   : 576 pixels
Display aspect ratio                     : 4:3
Frame rate mode                          : Constant
Frame rate                               : 25.000 FPS
Color space                              : YUV
Chroma subsampling                       : 4:2:0
Bit depth                                : 8 bits
Scan type                                : Progressive
Bits/(Pixel*Frame)                       : 0.064
Stream size                              : 683 MiB (84%)
Writing library                          : x264 core 148 r2643 5c65704

Audio
ID                                       : 2
Format                                   : AAC
Format/Info                              : Advanced Audio Codec
Format profile                           : LC
Codec ID                                 : mp4a-40-2
Duration                                 : 2 h 14 min
Bit rate mode                            : Constant
Bit rate                                 : 128 kb/s
Channel(s)                               : 2 channels
Channel(s)_Original                      : 1 channel
Channel positions                        : Front: C
Sampling rate                            : 44.1 kHz
Frame rate                               : 43.066 FPS (1024 SPF)
Compression mode                         : Lossy
Stream size                              : 123 MiB (15%)
Default                                  : Yes
Alternate group                          : 1


[img]http://i.imgur.com/wG4Ah71.png?1[/img]
Category:Movies > Bollywood
Lang:Hindi
Total Size:813.42 MB
Info Hash:61d9858024cc860097de66324cf3ec62c83e258d
Added By:HDFilmBoss
Date Added:13-05-2018 14:25:38
Views:1,179
Hits:126

Download Torrent

Ratings:Not Yet Rated (Log in to rate it)


Tracker:
udp://tracker.openbittorrent.com:80/announce


File List: 


Comments

No comments still posted

Powered by 10 Hamsters v2-svn -|- Page Generated In 0.126894 secs.
-|- RSS FEED
Theme By: Nikkbu