This Week in WWE | Développement personnel | Udemy - Ultimate Photoshop Training From Beginner to P...
[Login] or [Signup]
Login
Username:
Password:
[Signup]
[Recover Account]


Poll


You must be logged in to view polls



Torrent Details For "Red Sparrow 2018 1080p Bluray Dual Audio Hindi DD 5.1 English 6CH MAVI"

Red Sparrow 2018 1080p Bluray Dual Audio Hindi DD 5.1 English 6CH MAVI

Download this torrent | Magnet Download
Health:
Seeds: 2
Leechers: 5
Completed: 358 
Last Checked: 12-06-2018 23:02:34
External Torrent
Update Stats
Download Magnet


Poster
No poster


iMDB
Imdb Picture Title: Red Sparrow
Year: 2018
Runtime: 139 minutes
Votes: 7217
Rating: 6.6/10
Language: English, Russian
Country: USA
All Genres: Mystery, Thriller
Plot Outline: Ballerina Dominika Egorova is recruited to 'Sparrow School,' a Russian intelligence service where she is forced to use her body as a weapon. Her first mission, targeting a C.I.A. agent, threatens to unravel the security of both nations.
Tagline: Seductive. Deceptive. Deadly.
Director: Francis Lawrence
Writing By: Justin Haythe,Jason Matthews,
Produced By: Garrett Basch,Peter Chernin,Ildiko Kemeny,Cameron MacConomy,Mary McLaglen,David Minkowski,David Ready,Jenno Topping,Steven Zaillian,
Music: James Newton Howard
Cast:
Jennifer Lawrence as Dominika Egorova
Joel Edgerton as Nate Nash
Matthias Schoenaerts as Vanya Egorov
Charlotte Rampling as Matron
Mary-Louise Parker as Stephanie Boucher
Ciarán Hinds as Zakharov
Joely Richardson as Nina Egorova
Bill Camp as Marty Gable
Jeremy Irons as General Korchnoi
Thekla Reuten as Marta
Trailers:
Official Trailer
Official Trailer


Watch-Free-HD     Download

Details
Name:Red Sparrow 2018 1080p Bluray Dual Audio Hindi DD 5.1 English 6CH MAVI
Description:



Movie Encode From Full BD


Red Sparrow 2018 1080p Bluray Dual Audio Hindi DD 5.1 English 6CH MAVI


 Join Us Now FaceBook


 Org Bluray Audio Source (CHDBits Thanks For Audio)

Video
ID                                       : 1
Format                                   : AVC
Format/Info                              : Advanced Video Codec
Format profile                           : [email protected]
Format settings                          : CABAC / 5 Ref Frames
Format settings, CABAC                   : Yes
Format settings, RefFrames               : 5 frames
Codec ID                                 : V_MPEG4/ISO/AVC
Duration                                 : 2 h 20 min
Bit rate                                 : 5 000 kb/s
Width                                    : 1 920 pixels
Height                                   : 800 pixels
Display aspect ratio                     : 2.40:1
Frame rate mode                          : Constant
Frame rate                               : 23.976 (24000/1001) FPS
Color space                              : YUV
Chroma subsampling                       : 4:2:0
Bit depth                                : 8 bits
Scan type                                : Progressive
Bits/(Pixel*Frame)                       : 0.136
Stream size                              : 4.89 GiB (81%)
Writing library                          : x264 core 155 r2901 7d0ff22
Language                                 : English
Default                                  : Yes
Forced                                   : No
Color range                              : Limited
Color primaries                          : Generic film
Transfer characteristics                 : BT.709
Matrix coefficients                      : BT.709

Audio #1
ID                                       : 2
Format                                   : AC-3
Format/Info                              : Audio Coding 3
Codec ID                                 : A_AC3
Duration                                 : 2 h 20 min
Bit rate mode                            : Constant
Bit rate                                 : 640 kb/s
Channel(s)                               : 6 channels
Channel positions                        : Front: L C R, Side: L R, LFE
Sampling rate                            : 48.0 kHz
Frame rate                               : 31.250 FPS (1536 SPF)
Bit depth                                : 16 bits
Compression mode                         : Lossy
Stream size                              : 642 MiB (10%)
Language                                 : English
Service kind                             : Complete Main
Default                                  : Yes
Forced                                   : No

Audio #2
ID                                       : 3
Format                                   : AC-3
Format/Info                              : Audio Coding 3
Codec ID                                 : A_AC3
Duration                                 : 2 h 20 min
Bit rate mode                            : Constant
Bit rate                                 : 448 kb/s
Channel(s)                               : 6 channels
Channel positions                        : Front: L C R, Side: L R, LFE
Sampling rate                            : 48.0 kHz
Frame rate                               : 31.250 FPS (1536 SPF)
Bit depth                                : 16 bits
Compression mode                         : Lossy
Stream size                              : 449 MiB (7%)
Language                                 : Hindi
Service kind                             : Complete Main
Default                                  : No
Forced                                   : No

Text #1
ID                                       : 4
Format                                   : PGS
Codec ID                                 : S_HDMV/PGS
Codec ID/Info                            : Picture based subtitle format used on BDs/HD-DVDs
Duration                                 : 6 s 173 ms
Bit rate                                 : 40.4 kb/s
Count of elements                        : 4
Stream size                              : 30.5 KiB (0%)
Title                                    : Forced
Language                                 : English
Default                                  : Yes
Forced                                   : No

Text #2
ID                                       : 5
Format                                   : PGS
Codec ID                                 : S_HDMV/PGS
Codec ID/Info                            : Picture based subtitle format used on BDs/HD-DVDs
Duration                                 : 2 h 12 min
Bit rate                                 : 35.3 kb/s
Count of elements                        : 3554
Stream size                              : 33.5 MiB (1%)
Title                                    : SDH
Language                                 : English
Default                                  : No
Forced                                   : No

Text #3
ID                                       : 6
Format                                   : PGS
Codec ID                                 : S_HDMV/PGS
Codec ID/Info                            : Picture based subtitle format used on BDs/HD-DVDs
Duration                                 : 2 h 18 min
Bit rate                                 : 22.1 kb/s
Count of elements                        : 2978
Stream size                              : 21.9 MiB (0%)
Language                                 : Hindi
Default                                  : No
Forced                                   : No

Menu
00:00:00.000                             : en:00:00:00.000
00:08:00.105                             : en:00:08:00.105
00:11:31.983                             : en:00:11:31.983
00:16:57.183                             : en:00:16:57.183
00:21:09.643                             : en:00:21:09.643
00:27:21.265                             : en:00:27:21.265
00:33:03.356                             : en:00:33:03.356
00:38:09.245                             : en:00:38:09.245
00:42:29.130                             : en:00:42:29.130
00:46:41.799                             : en:00:46:41.799
00:54:14.334                             : en:00:54:14.334
00:58:45.480                             : en:00:58:45.480
01:04:55.266                             : en:01:04:55.266
01:10:26.139                             : en:01:10:26.139
01:16:28.250                             : en:01:16:28.250
01:26:44.699                             : en:01:26:44.699
01:32:06.938                             : en:01:32:06.938
01:36:22.443                             : en:01:36:22.443
01:41:53.149                             : en:01:41:53.149
01:49:48.415                             : en:01:49:48.415
01:53:45.610                             : en:01:53:45.610
01:58:52.083                             : en:01:58:52.083
02:07:20.132                             : en:02:07:20.132
02:13:40.095                             : en:02:13:40.095





 
 
 
 
 
 
 
 
 
 
 
 
 
 
 

Category:Movies > 1080P Bluray
Lang:Hindi
Total Size:6.08 GB
Info Hash:1e4a12c42e01cc9ae586116371b237cf78b6163e
Added By:Sup2425
Date Added:16-05-2018 10:09:21
Views:379
Hits:35

Download Torrent

Ratings:Not Yet Rated (Log in to rate it)


Tracker:
UDP://TRACKER.LEECHERS-PARADISE.ORG:6969/ANNOUNCE


File List: 


Comments

No comments still posted

Powered by 10 Hamsters v2-svn -|- Page Generated In 2.292583 secs.
-|- RSS FEED
Theme By: Nikkbu